Wakefield - Nascosto nell'ombra (2016).720p.H264.italian.english.Ac3-5.1.multisub-MIRCrew

  • Category Movies
  • Type HD
  • Language English
  • Total size 2.1 GB
  • Uploaded By robbyrs
  • Downloads 66
  • Last checked Jan. 24th '19
  • Date uploaded Jan. 23rd '19
  • Seeders 16
  • Leechers 22

Wakefield

Drama

A man's nervous breakdown causes him to leave his wife and live in his attic for several months.

Infohash : B966B625B25D68A2A794531B3F85012011C7FA6D

Wakefield - Nascosto nell'ombra (2016).720p.H264.italian.english.Ac3-5.1.multisub-MIRCrew


NO FOUND ONLY ORIGINAL RELEASE

My release is always in double track audio italian and Original audio
for select it use VLC or dvd player home
not use wmp

Wakefield - Nascosto nell'ombra (2016)

Quality MIRCrew on HD 720p da 2,0 gb







Riconoscimenti

2016 - Hamptons International Film Festival
Miglior regista donna a Robin Swicord
2016 - California on Location Awards
Candidatura per il miglior film indipendente

Titolo originale Wakefield
Lingua originale inglese
Paese di produzione Stati Uniti d'America
Anno 2016
Durata 106 min
Rapporto 2,35 : 1
Genere drammatico
Regia Robin Swicord
Soggetto E. L. Doctorow (racconto breve)
Sceneggiatura Robin Swicord



Bryan Cranston: Howard Wakefield
Jennifer Garner: Diana Wakefield
Beverly D'Angelo: Babs
Jason O'Mara: Dirk Morrison
Ian Anthony Dale: Ben Jacobs
Victoria Bruno: Taylor Wakefield



Un uomo distinto, un professionista pendolare, stanco della routine e dei litigi per gelosia con la moglie, prima di rientrare in casa, sale per caso sulla soffitta del garage e decide di rimanerci per mesi, dandosi per scomparso. Da qui comincia una vita di stenti e di riflessioni.



Howard has a loving wife (Garner), two daughters, a prestigious job as a Manhattan lawyer, and a comfortable home in the suburbs. But inwardly he's suffocating, and eventually he snaps and goes into hiding in his garage attic leaving his family to wonder what happened to him










General

Complete name : Wakefield - Nascosto nell'ombra (2016).720p.h264.ita.eng.sub.ita-MIRCrew\Wakefield - Nascosto nell'ombra (2016).720p.h264.ita.eng.sub.ita-MIRCrew.mkv
Format : Matroska
Format version : Version 4 / Version 2
File size : 2.05 GiB
Duration : 1h 44mn
Overall bit rate : 2 812 Kbps
Movie name : MIRCrew
Encoded date : UTC 2019-01-21 15:33:31
Writing application : mkvmerge v26.0.0 ('In The Game') 64-bit
Writing library : Lavf54.63.100
COMMENT : mircrew-mircrew

Video
ID : 1
Format : AVC
Format/Info : Advanced Video Codec
Format profile : [email protected]
Format settings, CABAC : Yes
Format settings, ReFrames : 2 frames
Codec ID : V_MPEG4/ISO/AVC
Duration : 1h 44mn
Bit rate : 1 900 Kbps
Width : 1 280 pixels
Height : 544 pixels
Display aspect ratio : 2.35:1
Original display aspect ratio : 2.35:1
Frame rate mode : Variable
Frame rate : 25.000 fps
Color space : YUV
Chroma subsampling : 4:2:0
Bit depth : 8 bits
Scan type : Progressive
Bits/(Pixel*Frame) : 0.109
Stream size : 1.35 GiB (66%)
Title : MIRCrew
Writing library : x264 core 130 r2273
Encoding settings : cabac=1 / ref=2 / deblock=1:0:0 / analyse=0x1:0x131 / me=hex / subme=7 / psy=1 / psy_rd=1.00:0.00 / mixed_ref=0 / me_range=16 / chroma_me=1 / trellis=1 / 8x8dct=0 / cqm=0 / deadzone=21,11 / fast_pskip=1 / chroma_qp_offset=-2 / threads=6 / lookahead_threads=1 / sliced_threads=0 / nr=0 / decimate=1 / interlaced=0 / bluray_compat=0 / constrained_intra=0 / bframes=3 / b_pyramid=0 / b_adapt=1 / b_bias=0 / direct=3 / weightb=1 / open_gop=0 / weightp=2 / keyint=250 / keyint_min=25 / scenecut=40 / intra_refresh=0 / rc_lookahead=40 / rc=abr / mbtree=1 / bitrate=1900 / ratetol=1.0 / qcomp=0.60 / qpmin=10 / qpmax=69 / qpstep=4 / vbv_maxrate=24000 / vbv_bufsize=24000 / nal_hrd=none / ip_ratio=1.40 / aq=1:1.00
Language : Italian
Default : Yes
Forced : No
DURATION : 01:44:07.720000000
NUMBER_OF_FRAMES : 156193
NUMBER_OF_BYTES : 1494597790
_STATISTICS_WRITING_APP : mkvmerge v26.0.0 ('In The Game') 64-bit
_STATISTICS_WRITING_DATE_UTC : 2019-01-21 17:22:02
_STATISTICS_TAGS : BPS DURATION NUMBER_OF_FRAMES NUMBER_OF_BYTES

Audio #1
ID : 2
Format : AC-3
Format/Info : Audio Coding 3
Mode extension : CM (complete main)
Codec ID : A_AC3
Duration : 1h 44mn
Bit rate mode : Constant
Bit rate : 448 Kbps
Channel(s) : 6 channels
Channel positions : Front: L C R, Side: L R, LFE
Sampling rate : 48.0 KHz
Bit depth : 16 bits
Compression mode : Lossy
Delay relative to video : -5ms
Stream size : 334 MiB (16%)
Title : Ita Ac3 5.1
Language : Italian
Default : Yes
Forced : No
DURATION : 01:44:07.680000000
NUMBER_OF_FRAMES : 195240
NUMBER_OF_BYTES : 349870080
_STATISTICS_WRITING_APP : mkvmerge v26.0.0 ('In The Game') 64-bit
_STATISTICS_WRITING_DATE_UTC : 2019-01-21 17:22:02
_STATISTICS_TAGS : BPS DURATION NUMBER_OF_FRAMES NUMBER_OF_BYTES

Audio #2
ID : 3
Format : AC-3
Format/Info : Audio Coding 3
Mode extension : CM (complete main)
Codec ID : A_AC3
Duration : 1h 44mn
Bit rate mode : Constant
Bit rate : 448 Kbps
Channel(s) : 6 channels
Channel positions : Front: L C R, Side: L R, LFE
Sampling rate : 48.0 KHz
Bit depth : 16 bits
Compression mode : Lossy
Delay relative to video : -5ms
Stream size : 334 MiB (16%)
Title : Eng Ac3 5.1
Language : English
Default : No
Forced : No
DURATION : 01:44:07.712000000
NUMBER_OF_FRAMES : 195241
NUMBER_OF_BYTES : 349871872
_STATISTICS_WRITING_APP : mkvmerge v26.0.0 ('In The Game') 64-bit
_STATISTICS_WRITING_DATE_UTC : 2019-01-21 17:22:02
_STATISTICS_TAGS : BPS DURATION NUMBER_OF_FRAMES NUMBER_OF_BYTES

Menu
00:00:00.000 : :Capitolo 01
00:10:18.720 : :Capitolo 02
00:18:03.600 : :Capitolo 03
00:27:02.360 : :Capitolo 04
00:36:06.160 : :Capitolo 05
00:45:09.840 : :Capitolo 06
00:54:01.640 : :Capitolo 07
01:02:42.080 : :Capitolo 08
01:12:40.400 : :Capitolo 09
01:20:55.360 : :Capitolo 10
01:29:43.000 : :Capitolo 11
01:38:37.120 : :Capitolo 12





Files:

Wakefield - Nascosto nell'ombra (2016).720p.h264.ita.eng.sub.ita-MIRCrew
  • Wakefield - Nascosto nell'ombra (2016).720p.h264.ita.eng.sub.ita-MIRCrew.idx (0.5 KB)
  • Wakefield - Nascosto nell'ombra (2016).720p.h264.ita.eng.sub.ita-MIRCrew.ita.idx (43.4 KB)
  • Wakefield - Nascosto nell'ombra (2016).720p.h264.ita.eng.sub.ita-MIRCrew.ita.sub (6.4 MB)
  • Wakefield - Nascosto nell'ombra (2016).720p.h264.ita.eng.sub.ita-MIRCrew.mkv (2.0 GB)
  • Wakefield - Nascosto nell'ombra (2016).720p.h264.ita.eng.sub.ita-MIRCrew.sub (2.0 KB)

Code:

  • udp://tracker.coppersurfer.tk:6969/announce
  • udp://tracker.torrent.eu.org:451/announce
  • udp://tracker.pirateparty.gr:6969/announce
  • udp://tracker.opentrackr.org:1337/announce
  • udp://tracker.leechers-paradise.org:6969/announce
  • udp://tracker.eddie4.nl:6969/announce
  • udp://shadowshq.yi.org:6969/announce
  • udp://shadowshq.eddie4.nl:6969/announce
  • udp://inferno.demonoid.pw:3391/announce
  • udp://eddie4.nl:6969/announce
  • udp://9.rarbg.to:2730/announce
  • udp://9.rarbg.com:2710/announce
  • udp://9.rarbg.me:2780/announce
  • udp://62.138.0.158:6969/announce
  • udp://151.80.120.114:2710/announce