Mary Shelley - Un amore immortale (2017).720p.H264.italian.english.Ac3-5.1.multisub-MIRCrew

  • Category Movies
  • Type HD
  • Language English
  • Total size 2.4 GB
  • Uploaded By robbyrs
  • Downloads 65
  • Last checked Jan. 24th '19
  • Date uploaded Jan. 23rd '19
  • Seeders 23
  • Leechers 12

Mary Shelley

Drama Romance

Mary Wollstonecraft's family disapproves when she and poet Percy Shelley announce their love for each other. The family is horrified when it finds that the couple has eloped, accompanied by Mary's half-sister, Claire. While staying in the home of Lord Byron at Lake Geneva, the guests are challenged to write a ghost story, which leads Mary to conceive her novel "Frankenstein".

Infohash : 04E96D14353515D9E7639A6C90683EF397875A12

Mary Shelley - Un amore immortale (2017).720p.H264.italian.english.Ac3-5.1.multisub-MIRCrew


NO FOUND ONLY ORIGINAL RELEASE

My release is always in double track audio italian and Original audio
for select it use VLC or dvd player home
not use wmp

Mary Shelley - Un amore immortale (2017)

Quality MIRCrew on HD 720p da 2,4 gb







Titolo originale Mary Shelley
Lingua originale inglese
Paese di produzione Stati Uniti d'America, Regno Unito, Lussemburgo
Anno 2017
Durata 120 min
Genere biografico, drammatico, sentimentale
Regia Haifaa al-Mansour
Sceneggiatura Emma Jensen, Haifaa al-Mansour



Elle Fanning: Mary Shelley
Douglas Booth: Percy Bysshe Shelley
Tom Sturridge: Lord George Gordon Byron
Bel Powley: Claire Clairmont
Stephen Dillane: William Godwin
Ben Hardy: John William Polidori
Maisie Williams: Isabel Baxter
Joanne Froggatt: Mary Jane Clairmont
Derek Riddell: William Baxter
Hugh O'Conor: Samuel Taylor Coleridge
Ciara Charteris: Harriet Shelley
Donna Marie Sludds: Signora Godwin
Jack Hickey: Thomas Hogg
Alex Cobb: scienziato



Primo decennio del XIX secolo. Mary Wollstonecraft Godwin, figlia della filosofa Mary Wollstonecraft e dello scrittore politico William Godwin, passa la sua adolescenza nei sobborghi di Londra. Sua madre è morta pochi giorni dopo la sua nascita, così lei vive col padre, la sua seconda moglie e i figli di quest'ultima, tra cui la sorellastra Claire Clairmont che le è molto affezionata.



On 1814, during Regency era, Mary Wollstonecraft-Godwin is a 16-years-old aspiring writer who lives in London working in the bookshop of her father, renowned writer William Godwin, married by second time with Mary Jane Clairmont after the passing of Mary's mother, philosopher Mary Wollstonecraft, and having a stepsister, Claire Clairmont.










General
Unique ID : 203010613110282202796076647649221530583 (0x98BA6C007140F17F00D2BD4DEFE7D3D7)
Complete name : Mary Shelley - Un amore immortale.720p.h264.ita.eng.sub.ita.eng-MIRCrew\Mary Shelley - Un amore immortale.720p.h264.ita.eng.sub.ita.eng-MIRCrew.mkv
Format : Matroska
Format version : Version 4 / Version 2
File size : 2.42 GiB
Duration : 2h 0mn
Overall bit rate : 2 873 Kbps
Movie name : MIRCrew
Encoded date : UTC 2019-01-22 18:20:25
Writing application : mkvmerge v26.0.0 ('In The Game') 64-bit
Writing library : Lavf54.63.100

Video
ID : 1
Format : AVC
Format/Info : Advanced Video Codec
Format profile : [email protected]
Format settings, CABAC : Yes
Format settings, ReFrames : 2 frames
Codec ID : V_MPEG4/ISO/AVC
Duration : 2h 0mn
Bit rate : 2 000 Kbps
Width : 1 280 pixels
Height : 544 pixels
Display aspect ratio : 2.40:1
Original display aspect ratio : 2.40:1
Frame rate mode : Variable
Frame rate : 23.976 fps
Color space : YUV
Chroma subsampling : 4:2:0
Bit depth : 8 bits
Scan type : Progressive
Bits/(Pixel*Frame) : 0.120
Stream size : 1.62 GiB (67%)
Title : MIRCrew
Writing library : x264 core 130 r2273
Encoding settings : cabac=1 / ref=2 / deblock=1:0:0 / analyse=0x1:0x131 / me=hex / subme=7 / psy=1 / psy_rd=1.00:0.00 / mixed_ref=0 / me_range=16 / chroma_me=1 / trellis=1 / 8x8dct=0 / cqm=0 / deadzone=21,11 / fast_pskip=1 / chroma_qp_offset=-2 / threads=6 / lookahead_threads=1 / sliced_threads=0 / nr=0 / decimate=1 / interlaced=0 / bluray_compat=0 / constrained_intra=0 / bframes=3 / b_pyramid=0 / b_adapt=1 / b_bias=0 / direct=3 / weightb=1 / open_gop=0 / weightp=2 / keyint=230 / keyint_min=23 / scenecut=40 / intra_refresh=0 / rc_lookahead=40 / rc=abr / mbtree=1 / bitrate=2000 / ratetol=1.0 / qcomp=0.60 / qpmin=10 / qpmax=69 / qpstep=4 / vbv_maxrate=24000 / vbv_bufsize=24000 / nal_hrd=none / ip_ratio=1.40 / aq=1:1.00
Language : Italian
Default : Yes
Forced : No
DURATION : 02:00:36.021000000
NUMBER_OF_FRAMES : 173491
NUMBER_OF_BYTES : 1786995397
_STATISTICS_WRITING_APP : mkvmerge v26.0.0 ('In The Game') 64-bit
_STATISTICS_WRITING_DATE_UTC : 2019-01-22 22:04:20
_STATISTICS_TAGS : BPS DURATION NUMBER_OF_FRAMES NUMBER_OF_BYTES

Audio #1
ID : 2
Format : AC-3
Format/Info : Audio Coding 3
Mode extension : CM (complete main)
Codec ID : A_AC3
Duration : 2h 0mn
Bit rate mode : Constant
Bit rate : 448 Kbps
Channel(s) : 6 channels
Channel positions : Front: L C R, Side: L R, LFE
Sampling rate : 48.0 KHz
Bit depth : 16 bits
Compression mode : Lossy
Delay relative to video : -5ms
Stream size : 387 MiB (16%)
Title : Ita Ac3 5.1
Language : Italian
Default : Yes
Forced : No
DURATION : 02:00:37.056000000
NUMBER_OF_FRAMES : 226158
NUMBER_OF_BYTES : 405275136
_STATISTICS_WRITING_APP : mkvmerge v26.0.0 ('In The Game') 64-bit
_STATISTICS_WRITING_DATE_UTC : 2019-01-22 22:04:20
_STATISTICS_TAGS : BPS DURATION NUMBER_OF_FRAMES NUMBER_OF_BYTES

Audio #2
ID : 3
Format : AC-3
Format/Info : Audio Coding 3
Mode extension : CM (complete main)
Codec ID : A_AC3
Duration : 2h 0mn
Bit rate mode : Constant
Bit rate : 448 Kbps
Channel(s) : 6 channels
Channel positions : Front: L C R, Side: L R, LFE
Sampling rate : 48.0 KHz
Bit depth : 16 bits
Compression mode : Lossy
Delay relative to video : -5ms
Stream size : 387 MiB (16%)
Title : Eng Ac3 5.1
Language : English
Default : No
Forced : No
DURATION : 02:00:37.056000000
NUMBER_OF_FRAMES : 226158
NUMBER_OF_BYTES : 405275136
_STATISTICS_WRITING_APP : mkvmerge v26.0.0 ('In The Game') 64-bit
_STATISTICS_WRITING_DATE_UTC : 2019-01-22 22:04:20
_STATISTICS_TAGS : BPS DURATION NUMBER_OF_FRAMES NUMBER_OF_BYTES



Files:

Mary Shelley - Un amore immortale.720p.h264.ita.eng.sub.ita.eng-MIRCrew
  • Mary Shelley - Un amore immortale.720p.h264.ita.eng.sub.ita.eng-MIRCrew.eng.srt (101.8 KB)
  • Mary Shelley - Un amore immortale.720p.h264.ita.eng.sub.ita.eng-MIRCrew.ita.srt (97.1 KB)
  • Mary Shelley - Un amore immortale.720p.h264.ita.eng.sub.ita.eng-MIRCrew.mkv (2.4 GB)
  • Mary Shelley - Un amore immortale.720p.h264.ita.eng.sub.ita.eng-MIRCrew.srt (0.3 KB)

Code:

  • udp://tracker.coppersurfer.tk:6969/announce
  • udp://tracker.torrent.eu.org:451/announce
  • udp://tracker.pirateparty.gr:6969/announce
  • udp://tracker.opentrackr.org:1337/announce
  • udp://tracker.leechers-paradise.org:6969/announce
  • udp://tracker.eddie4.nl:6969/announce
  • udp://shadowshq.yi.org:6969/announce
  • udp://shadowshq.eddie4.nl:6969/announce
  • udp://inferno.demonoid.pw:3391/announce
  • udp://eddie4.nl:6969/announce
  • udp://9.rarbg.to:2730/announce
  • udp://9.rarbg.com:2710/announce
  • udp://9.rarbg.me:2780/announce
  • udp://62.138.0.158:6969/announce
  • udp://151.80.120.114:2710/announce