Christopher Robin - Ritorno al bosco dei 100 acri (2018).720p.H264.italian.english.Ac3-5.1.sub.ita.eng-MIRCrew

  • Category Movies
  • Type HD
  • Language English
  • Total size 2 GB
  • Uploaded By robbyrs
  • Downloads 89
  • Last checked Jan. 24th '19
  • Date uploaded Jan. 23rd '19
  • Seeders 19
  • Leechers 29

Christopher Robin

Animation Adventure Comedy

Working-class family man Christopher Robin encounters his childhood friend Winnie-the-Pooh, who helps him to rediscover the joys of life.

Infohash : FE0E6020A2D282F11BCD644BFDC2D99C2923E6DE

Christopher Robin - Ritorno al bosco dei 100 acri (2018).720p.H264.italian.english.Ac3-5.1.sub.ita.eng-MIRCrew


NO FOUND ONLY ORIGINAL RELEASE

My release is always in double track audio italian and Original audio
for select it use VLC or dvd player home
not use wmp

Ritorno al bosco dei 100 acri - Christopher Robin (2018)

Quality MIRCrew on HD 720p da 2,0 gb







Titolo originale Christopher Robin
Lingua originale inglese
Paese di produzione Stati Uniti d'America
Anno 2018
Durata 104 min
Genere fantastico, avventura, animazione, commedia, drammatico
Regia Marc Forster
Soggetto personaggi di A. A. Milne e E.H. Shepard, storia di Greg Brooker e Mark Steven Johnson
Sceneggiatura Alex Ross Perry, Allison Schroeder, Tom McCarthy



Ewan McGregor: Christopher Robin
Hayley Atwell: Evelyn Robin
Bronte Carmichael: Madeline Robin
Mark Gatiss: Giles Winslow Jr.
Oliver Ford Davies: vecchio Winslow
Ronke Adekoluejo: Katherine Dane
Adrian Scarborough: Hal Gallswhorty
Roger Ashton-Griffiths: Ralph Butterworth
Ken Nwosu: Paul Hastings
John Dagleish: Matthew Leadbetter
Amanda Lawrence: Joan MacMillan
Orton O'Brien: Christopher Robin da bambino
Katy Carmichael: mamma di Christopher Robin
Tristan Sturrock: papà di Christopher Robin
Paul Chahidi: Cecil Hungerford
Elsa Minell Solak: Madeleine a 3 anni
Matt Berry: Bobby, il poliziotto
Simon Farnaby: tassista
Mackenzie Crook: venditore di giornali
Gareth Mason: venditore di palloncini



Nel Bosco dei Cento Acri, Winnie the Pooh e i suoi amici organizzano una festa d'addio per il loro amico Christopher Robin: il bambino dovrà infatti partire per il collegio, quindi non potrà più giocare con loro. .....................



A working-class family man, Christopher Robin, encounters his childhood friend Winnie-the-Pooh, who helps him to rediscover the joys of life.









General
Unique ID : 236846206672145100704591618147649011561 (0xB22EEB8FE595F988032FCBAE17CB3F69)
Complete name : Ritorno al bosco dei 100 acri - Christopher Robin (2018).720p.ita.eng.sub.ita.eng-MIRCrew\Ritorno al bosco dei 100 acri - Christopher Robin (2018).720p.ita.eng.sub.ita.eng-MIRCrew.mkv
Format : Matroska
Format version : Version 4 / Version 2
File size : 1.94 GiB
Duration : 1h 43mn
Overall bit rate : 2 668 Kbps
Movie name : MIRCrew
Encoded date : UTC 2019-01-22T14:44:59Z
Writing application : mkvmerge v26.0.0 ('In The Game') 64-bit
Writing library : Lavf55.12.0

Video
ID : 1
Format : AVC
Format/Info : Advanced Video Codec
Format profile : [email protected]
Format settings, CABAC : Yes
Format settings, ReFrames : 4 frames
Codec ID : V_MPEG4/ISO/AVC
Duration : 1h 43mn
Bit rate : 1 900 Kbps
Width : 1 280 pixels
Height : 544 pixels
Display aspect ratio : 2.35:1
Frame rate : 23.976 fps
Color space : YUV
Chroma subsampling : 4:2:0
Bit depth : 8 bits
Scan type : Progressive
Bits/(Pixel*Frame) : 0.114
Stream size : 1.34 GiB (69%)
Title : MIRCrew
Writing library : x264 core 142 r2479 dd79a61
Encoding settings : cabac=1 / ref=1 / deblock=1:0:0 / analyse=0x1:0x111 / me=hex / subme=2 / psy=1 / psy_rd=1.00:0.00 / mixed_ref=0 / me_range=16 / chroma_me=1 / trellis=0 / 8x8dct=0 / cqm=0 / deadzone=21,11 / fast_pskip=1 / chroma_qp_offset=0 / threads=6 / lookahead_threads=2 / sliced_threads=0 / nr=0 / decimate=1 / interlaced=0 / bluray_compat=0 / constrained_intra=0 / bframes=3 / b_pyramid=2 / b_adapt=1 / b_bias=0 / direct=1 / weightb=1 / open_gop=0 / weightp=1 / keyint=240 / keyint_min=24 / scenecut=40 / intra_refresh=0 / rc_lookahead=10 / rc=abr / mbtree=1 / bitrate=1900 / ratetol=1.0 / qcomp=0.60 / qpmin=0 / qpmax=69 / qpstep=4 / vbv_maxrate=50000 / vbv_bufsize=62500 / nal_hrd=none / filler=0 / ip_ratio=1.40 / aq=1:1.00
Language : Italian
Default : Yes
Forced : No
DURATION : 01:43:55.980000000
NUMBER_OF_FRAMES : 149514
NUMBER_OF_BYTES : 1479805395
_STATISTICS_WRITING_APP : mkvmerge v26.0.0 ('In The Game') 64-bit
_STATISTICS_WRITING_DATE_UTC : 2019-01-22 16:09:46
_STATISTICS_TAGS : BPS DURATION NUMBER_OF_FRAMES NUMBER_OF_BYTES
Color primaries : BT.709-5, BT.1361, IEC 61966-2-4, SMPTE RP177
Transfer characteristics : BT.709-5, BT.1361
Matrix coefficients : BT.709-5, BT.1361, IEC 61966-2-4 709, SMPTE RP177

Audio #1
ID : 2
Format : AC-3
Format/Info : Audio Coding 3
Mode extension : CM (complete main)
Codec ID : A_AC3
Duration : 1h 43mn
Bit rate mode : Constant
Bit rate : 384 Kbps
Channel(s) : 6 channels
Channel positions : Front: L C R, Side: L R, LFE
Sampling rate : 48.0 KHz
Bit depth : 16 bits
Compression mode : Lossy
Delay relative to video : -5ms
Stream size : 285 MiB (14%)
Title : Ita Ac3 5.1
Language : Italian
Default : Yes
Forced : No
DURATION : 01:43:56.032000000
NUMBER_OF_FRAMES : 194876
NUMBER_OF_BYTES : 299329536
_STATISTICS_WRITING_APP : mkvmerge v26.0.0 ('In The Game') 64-bit
_STATISTICS_WRITING_DATE_UTC : 2019-01-22 16:09:46
_STATISTICS_TAGS : BPS DURATION NUMBER_OF_FRAMES NUMBER_OF_BYTES

Audio #2
ID : 3
Format : AC-3
Format/Info : Audio Coding 3
Mode extension : CM (complete main)
Codec ID : A_AC3
Duration : 1h 43mn
Bit rate mode : Constant
Bit rate : 384 Kbps
Channel(s) : 6 channels
Channel positions : Front: L C R, Side: L R, LFE
Sampling rate : 48.0 KHz
Bit depth : 16 bits
Compression mode : Lossy
Delay relative to video : -5ms
Stream size : 285 MiB (14%)
Title : Eng Ac3 5.1
Language : English
Default : No
Forced : No
DURATION : 01:43:56.064000000
NUMBER_OF_FRAMES : 194877
NUMBER_OF_BYTES : 299331072
_STATISTICS_WRITING_APP : mkvmerge v26.0.0 ('In The Game') 64-bit
_STATISTICS_WRITING_DATE_UTC : 2019-01-22 16:09:46
_STATISTICS_TAGS : BPS DURATION NUMBER_OF_FRAMES NUMBER_OF_BYTES

Menu
00:00:00.000 : :00:00:00.000
00:01:43.853 : :00:01:43.729
00:07:36.622 : :00:07:36.289
00:12:33.085 : :00:12:32.919
00:23:47.926 : :00:23:47.843
00:32:18.269 : :00:32:18.186
00:44:35.756 : :00:44:35.673
00:54:39.609 : :00:54:39.526
00:59:13.967 : :00:59:13.800
01:08:02.078 : :01:08:01.703
01:18:46.305 : :01:18:46.180
01:29:59.852 : :01:29:59.769
01:36:04.759 : :01:36:04.467
01:38:32.323 : :01:38:32.031

Files:

Ritorno al bosco dei 100 acri - Christopher Robin (2018).720p.ita.eng.sub.ita.eng-MIRCrew
  • Ritorno al bosco dei 100 acri - Christopher Robin (2018).720p.ita.eng.sub.ita.eng-MIRCrew.eng.idx (91.4 KB)
  • Ritorno al bosco dei 100 acri - Christopher Robin (2018).720p.ita.eng.sub.ita.eng-MIRCrew.eng.sub (11.6 MB)
  • Ritorno al bosco dei 100 acri - Christopher Robin (2018).720p.ita.eng.sub.ita.eng-MIRCrew.idx (1.2 KB)
  • Ritorno al bosco dei 100 acri - Christopher Robin (2018).720p.ita.eng.sub.ita.eng-MIRCrew.ita.idx (76.3 KB)
  • Ritorno al bosco dei 100 acri - Christopher Robin (2018).720p.ita.eng.sub.ita.eng-MIRCrew.ita.sub (8.6 MB)
  • Ritorno al bosco dei 100 acri - Christopher Robin (2018).720p.ita.eng.sub.ita.eng-MIRCrew.mkv (1.9 GB)
  • Ritorno al bosco dei 100 acri - Christopher Robin (2018).720p.ita.eng.sub.ita.eng-MIRCrew.sub (84.0 KB)

Code:

  • udp://tracker.coppersurfer.tk:6969/announce
  • udp://tracker.torrent.eu.org:451/announce
  • udp://tracker.pirateparty.gr:6969/announce
  • udp://tracker.opentrackr.org:1337/announce
  • udp://tracker.leechers-paradise.org:6969/announce
  • udp://tracker.eddie4.nl:6969/announce
  • udp://shadowshq.yi.org:6969/announce
  • udp://shadowshq.eddie4.nl:6969/announce
  • udp://inferno.demonoid.pw:3391/announce
  • udp://eddie4.nl:6969/announce
  • udp://9.rarbg.to:2730/announce
  • udp://9.rarbg.com:2710/announce
  • udp://9.rarbg.me:2780/announce
  • udp://62.138.0.158:6969/announce
  • udp://151.80.120.114:2710/announce