The.Grinch.2018.1080p.WEB-DL.x265.HEVCBay.com.mkv

  • Category Movies
  • Type HEVC/x265
  • Language English
  • Total size 690.5 MB
  • Uploaded By g3m696
  • Downloads 94
  • Last checked Jan. 24th '19
  • Date uploaded Jan. 23rd '19
  • Seeders 8
  • Leechers 4

The Grinch

Animation Family Comedy Fantasy

The Grinch hatches a scheme to ruin Christmas when the residents of Whoville plan their annual holiday celebration.

Infohash : 3A7CCF23DFCFF6944523A3BFA70B14D06A19C2B3

hevcbay.com

Code:

General
Unique ID : 52049665475415314337927834536032258073 (0x272866A392FE37553548E3AF5C6EC819)
Complete name : The.Grinch.2018.1080p.WEB-DL.x265.HEVCBay.com.mkv
Format : Matroska
Format version : Version 4
File size : 690 MiB
Duration : 1 h 26 min
Overall bit rate : 1 118 kb/s
Movie name : The.Grinch.2018.1080p.WEB-DL.x265.HEVCBay.com.mkv
Encoded date : UTC 2019-01-23 02:35:42
Writing application : hevcbay
Writing library : hevcbay.com / Lavf58.22.100
Comment : Encoded by hevcbay.com
ENCODED-BY : hevcbay.com

Video
ID : 1
Format : HEVC
Format/Info : High Efficiency Video Coding
Format profile : [email protected]@Main
Codec ID : V_MPEGH/ISO/HEVC
Duration : 1 h 26 min
Bit rate : 1 067 kb/s
Width : 1 920 pixels
Height : 802 pixels
Display aspect ratio : 2.40:1
Frame rate mode : Constant
Frame rate : 23.976 (24000/1001) FPS
Color space : YUV
Chroma subsampling : 4:2:0
Bit depth : 8 bits
Bits/(Pixel*Frame) : 0.029
Stream size : 659 MiB (95%)
Writing library : Lavc58.42.102 libx265
Language : English
Default : Yes
Forced : No
Color range : Limited

Audio
ID : 2
Format : AAC LC SBR PS
Format/Info : Advanced Audio Codec Low Complexity with Spectral Band Replication and Parametric Stereo
Commercial name : HE-AACv2
Format settings : NBC
Codec ID : A_AAC-29
Duration : 1 h 25 min
Bit rate : 48.0 kb/s
Channel(s) : 2 channels
Channel layout : C
Sampling rate : 48.0 kHz
Frame rate : 23.438 FPS (2048 SPF)
Compression mode : Lossy
Delay relative to video : -190 ms
Stream size : 30.2 MiB (4%)
Writing library : Lavc58.42.102 libfdk_aac
Language : English
Default : Yes
Forced : No



https://extraimage.net/image/ckKi
https://extraimage.net/image/ckKl
https://extraimage.net/image/ckKC
https://extraimage.net/image/ckKY

Files:

  • The.Grinch.2018.1080p.WEB-DL.x265.HEVCBay.com.mkv (690.5 MB)

Code:

  • udp://tracker.coppersurfer.tk:6969/announce
  • udp://tracker.open-internet.nl:6969/announce
  • udp://tracker.leechers-paradise.org:6969/announce
  • udp://tracker.internetwarriors.net:1337/announce
  • http://tracker.internetwarriors.net:1337/announce
  • udp://tracker.opentrackr.org:1337/announce
  • udp://9.rarbg.to:2710/announce
  • udp://exodus.desync.com:6969/announce
  • udp://explodie.org:6969/announce
  • http://explodie.org:6969/announce
  • udp://tracker1.itzmx.com:8080/announce
  • http://tracker3.itzmx.com:6961/announce
  • http://tracker1.itzmx.com:8080/announce
  • udp://ipv4.tracker.harry.lu:80/announce
  • udp://tracker.torrent.eu.org:451/announce
  • udp://tracker.tiny-vps.com:6969/announce
  • udp://tracker.port443.xyz:6969/announce
  • udp://tracker.cyberia.is:6969/announce
  • udp://thetracker.org:80/announce
  • udp://denis.stalker.upeer.me:6969/announce
  • udp://bt.xxx-tracker.com:2710/announce
  • http://tracker.port443.xyz:6969/announce
  • udp://tracker1.wasabii.com.tw:6969/announce
  • udp://tracker.vanitycore.co:6969/announce
  • udp://tracker.dler.org:6969/announce
  • udp://open.stealth.si:80/announce
  • udp://open.demonii.si:1337/announce
  • http://tracker1.wasabii.com.tw:6969/announce
  • http://open.acgnxtracker.com:80/announce
  • udp://tracker2.itzmx.com:6961/announce
  • udp://tracker.uw0.xyz:6969/announce
  • udp://retracker.lanta-net.ru:2710/announce
  • http://tracker2.itzmx.com:6961/announce
  • http://private.minimafia.nl:443/announce
  • http://prestige.minimafia.nl:443/announce
  • udp://tracker4.itzmx.com:2710/announce
  • https://tracker.fastdownload.xyz:443/announce
  • https://opentracker.xyz:443/announce
  • http://torrent.nwps.ws:80/announce
  • http://opentracker.xyz:80/announce
  • http://open.trackerlist.xyz:80/announce
  • udp://zephir.monocul.us:6969/announce
  • udp://tracker.swateam.org.uk:2710/announce
  • udp://tracker.open-tracker.org:1337/announce
  • udp://tracker.novg.net:6969/announce
  • udp://tracker.gbitt.info:80/announce
  • udp://tracker.filepit.to:6969/announce
  • udp://tracker.dyn.im:6969/announce
  • udp://torrentclub.tech:6969/announce
  • udp://newtoncity.org:6969/announce
  • https://tracker.gbitt.info:443/announce
  • http://tracker4.itzmx.com:2710/announce
  • http://tracker.open-tracker.org:1337/announce
  • http://tracker.novg.net:6969/announce
  • http://tracker.gbitt.info:80/announce
  • http://tracker.city9x.com:2710/announce
  • http://torrentclub.tech:6969/announce
  • http://t.nyaatracker.com:80/announce
  • http://retracker.mgts.by:80/announce
  • http://newtoncity.org:6969/announce
  • http://bt.artvid.ru:6969/announce
  • wss://tracker.openwebtorrent.com:443/announce
  • wss://tracker.fastcast.nz:443/announce
  • udp://tracker.kamigami.org:2710/announce
  • udp://tracker.justseed.it:1337/announce
  • udp://tracker.iamhansen.xyz:2000/announce
  • udp://tracker.freddit.nl:6969/announce
  • udp://pubt.in:2710/announce
  • udp://packages.crunchbangplusplus.org:6969/announce
  • https://1337.abcvg.info:443/announce
  • http://tracker.torrentyorg.pl:80/announce
  • http://tracker.tfile.me:80/announce.php
  • http://peersteers.org:80/announce