The Upside 2019 Movies HD Cam Clean Audio New Source with Sample ☻rDX☻

  • Category Movies
  • Type h.264/x264
  • Language English
  • Total size 705.2 MB
  • Uploaded By nehalpuja
  • Downloads 81
  • Last checked Jan. 23rd '19
  • Date uploaded Jan. 23rd '19
  • Seeders 3
  • Leechers 104

The Upside

Comedy Drama

Phillip is a wealthy quadriplegic who needs a caretaker to help him with his day-to-day routine in his New York penthouse. He decides to hire Dell, a struggling parolee who's trying to reconnect with his ex and his young son. Despite coming from two different worlds, an unlikely friendship starts to blossom.

Infohash : E652B79D53469FADF04FFF825C9D0F43B194EC22

The Upside 2019 Movies HD Cam Clean Audio New Source with Sample ☻rDX☻
===============================================================================================

SCREEN SHOTS:



or

https://iphonehosting.eu/2018/12/ebay/1.html

File size : 693 MiB
Duration : 1 h 54 min
Overall bit rate mode : Constant
Overall bit rate : 845 kb/s
Movie name : The Upside 2019 Movies HD Cam Clean Audio New Source ☻rDX☻

Video
ID : 2
Format : AVC
Format/Info : Advanced Video Codec
Format profile : [email protected]
Format settings, CABAC : Yes
Format settings, ReFrames : 2 frames
Format settings, GOP : M=1, N=12
Codec ID : V_MPEG4/ISO/AVC
Duration : 1 h 54 min
Bit rate mode : Constant
Bit rate : 782 kb/s
Width : 700 pixels
Height : 372 pixels
Display aspect ratio : 1.882
Frame rate mode : Constant
Frame rate : 29.970 (30000/1001) FPS
Color space : YUV
Chroma subsampling : 4:2:0
Bit depth : 8 bits
Scan type : Progressive
Bits/(Pixel*Frame) : 0.100
Stream size : 627 MiB (90%)
Title : ☻rDX☻
Default : Yes
Forced : No

Audio
ID : 1
Format : AC-3
Format/Info : Audio Coding 3
Mode extension : CM (complete main)
Format settings, Endianness : Big
Codec ID : A_AC3
Duration : 1 h 54 min
Bit rate mode : Constant
Bit rate : 64.0 kb/s
Channel(s) : 2 channels
Channel positions : Front: L R
Sampling rate : 44.1 kHz
Frame rate : 28.711 FPS (1536 spf)
Bit depth : 16 bits
Compression mode : Lossy
Stream size : 52.5 MiB (8%)
Title : ☻rDX☻
Default : Yes
Forced : No

https://www.imdb.com/title/tt1987680

Files:

The Upside 2019 Movies HD Cam Clean Audio New Source with Sample ☻rDX☻
  • Sample ~ The Upside 2019 Movies HD Cam Clean Audio New Source ☻rDX☻.mkv (12.0 MB)
  • The Upside 2019 Movies HD Cam Clean Audio New Source ☻rDX☻.mkv (693.2 MB)

Code:

  • udp://tracker.coppersurfer.tk:6969/announce
  • udp://tracker.leechers-paradise.org:6969/announce
  • udp://tracker.pirateparty.gr:6969/announce
  • udp://eddie4.nl:6969/announce
  • udp://tracker.zer0day.to:1337/announce
  • udp://9.rarbg.me:2710/announce
  • udp://9.rarbg.to:2710/announce
  • udp://public.popcorn-tracker.org:6969/announce
  • udp://p4p.arenabg.ch:1337/announce
  • udp://tracker.vanitycore.co:6969/announce
  • udp://ipv4.tracker.harry.lu:80/announce
  • udp://tracker.opentrackr.org:1337/announce
  • udp://p4p.arenabg.com:1337/announce
  • udp://shadowshq.yi.org:6969/announce