Creed 2 (II) 2018 Movies HD TC Clean Audio New Source with Sample ☻rDX☻

  • Category Movies
  • Type h.264/x264
  • Language English
  • Total size 705.8 MB
  • Uploaded By nehalpuja
  • Downloads 423
  • Last checked Jan. 23rd '19
  • Date uploaded Jan. 23rd '19
  • Seeders 83
  • Leechers 55

Infohash : AD5D15950487A7E68BF231428FA05B1DB3BC2E17

Creed 2 (II) 2018 Movies HD TC Clean Audio New Source with Sample ☻rDX☻
===============================================================================================

SCREEN SHOTS:



or

https://iphonehosting.eu/2018/12/electricity/1.html

File size : 695 MiB
Duration : 2 h 2 min
Overall bit rate mode : Constant
Overall bit rate : 792 kb/s
Movie name : Creed 2 (II) 2018 Movies HD TC Clean Audio New Source ☻rDX☻

Video
ID : 2
Format : AVC
Format/Info : Advanced Video Codec
Format profile : [email protected]
Format settings, CABAC : Yes
Format settings, ReFrames : 2 frames
Format settings, GOP : M=1, N=12
Codec ID : V_MPEG4/ISO/AVC
Duration : 2 h 2 min
Bit rate mode : Constant
Bit rate : 729 kb/s
Width : 720 pixels
Height : 304 pixels
Display aspect ratio : 2.35:1
Frame rate mode : Constant
Frame rate : 30.000 FPS
Color space : YUV
Chroma subsampling : 4:2:0
Bit depth : 8 bits
Scan type : Progressive
Bits/(Pixel*Frame) : 0.111
Stream size : 625 MiB (90%)
Title : ☻rDX☻
Default : Yes
Forced : No

Audio
ID : 1
Format : AC-3
Format/Info : Audio Coding 3
Mode extension : CM (complete main)
Format settings, Endianness : Big
Codec ID : A_AC3
Duration : 2 h 2 min
Bit rate mode : Constant
Bit rate : 64.0 kb/s
Channel(s) : 2 channels
Channel positions : Front: L R
Sampling rate : 44.1 kHz
Frame rate : 28.711 FPS (1536 spf)
Bit depth : 16 bits
Compression mode : Lossy
Stream size : 56.1 MiB (8%)
Title : ☻rDX☻
Default : Yes
Forced : No

https://www.imdb.com/title/tt6343314

Files:

Creed 2 (II) 2018 Movies HD TC Clean Audio New Source with Sample ☻rDX☻
  • Sample ~ Creed 2 (II) 2018 Movies HD TC Clean Audio New Source ☻rDX☻.mkv (11.0 MB)
  • Creed 2 (II) 2018 Movies HD TC Clean Audio New Source ☻rDX☻.mkv (694.7 MB)

Code:

  • udp://tracker.coppersurfer.tk:6969/announce
  • udp://tracker.leechers-paradise.org:6969/announce
  • udp://tracker.pirateparty.gr:6969/announce
  • udp://eddie4.nl:6969/announce
  • udp://tracker.zer0day.to:1337/announce
  • udp://9.rarbg.me:2710/announce
  • udp://9.rarbg.to:2710/announce
  • udp://public.popcorn-tracker.org:6969/announce
  • udp://p4p.arenabg.ch:1337/announce
  • udp://tracker.vanitycore.co:6969/announce
  • udp://ipv4.tracker.harry.lu:80/announce
  • udp://tracker.opentrackr.org:1337/announce
  • udp://p4p.arenabg.com:1337/announce
  • udp://shadowshq.yi.org:6969/announce