The Adventurers (2017) 720p Blu-Ray x264 Esub [Dual Audio] [Hindi DD 2.0 - Chinese 2.0] - 1.2 GB

  • Category Movies
  • Type Dubs/Dual Audio
  • Language Hindi
  • Total size 1.2 GB
  • Uploaded By DESIRE123
  • Downloads 3648
  • Last checked Jan. 23rd '19
  • Date uploaded Jan. 22nd '19
  • Seeders 164
  • Leechers 114

The Adventurers

Action Drama Crime Adventure

The world's top thieves join forces to pull off the heist of a lifetime. But when they find themselves pursued across Europe by a legendary French detective, they'll have to take their game to the next level.

Infohash : 50352AF61D76FFDF32636D6E430B240C8D589F18

The Adventurers (2017) 720p Blu-Ray x264 Esub [Dual Audio] [Hindi DD 2.0 - Chinese 2.0] - 1.2 GB


EXUSIVE UPLOAD BY DesireMoVies.Club


The Adventurers (2017)


POSTER



INFO


General
Format : Matroska
Format version : Version 4
File size : 1.16 GiB
Duration : 1 h 47 min
Overall bit rate : 1 555 kb/s

Video
ID : 1
Format : AVC
Format/Info : Advanced Video Codec
Format profile : [email protected]
Format settings : CABAC / 12 Ref Frames
Format settings, CABAC : Yes
Format settings, ReFrames : 12 frames
Codec ID : V_MPEG4/ISO/AVC
Duration : 1 h 47 min
Bit rate : 1 200 kb/s
Width : 1 280 pixels
Height : 534 pixels
Display aspect ratio : 2.40:1
Original display aspect ratio : 2.40:1
Frame rate mode : Constant
Frame rate : 23.976 (24000/1001) FPS
Color space : YUV
Chroma subsampling : 4:2:0
Bit depth : 8 bits
Scan type : Progressive
Default : Yes
Forced : No
Color range : Limited
Color primaries : BT.709
Transfer characteristics : BT.709
Matrix coefficients : BT.709

Audio #1
ID : 2
Format : AC-3
Format/Info : Audio Coding 3
Commercial name : Dolby Digital
Codec ID : A_AC3
Duration : 1 h 47 min
Bit rate mode : Constant
Bit rate : 224 kb/s
Channel(s) : 2 channels
Channel layout : L R
Sampling rate : 48.0 kHz
Frame rate : 31.250 FPS (1536 SPF)
Bit depth : 16 bits
Compression mode : Lossy
Delay relative to video : -21 ms
Stream size : 172 MiB (14%)
Title : DesireMovies.Club
Language : Hindi
Service kind : Complete Main
Default : Yes
Forced : Yes

Audio #2
ID : 3
Format : AAC LC
Format/Info : Advanced Audio Codec Low Complexity
Codec ID : A_AAC-2
Duration : 1 h 47 min
Bit rate : 128 kb/s
Channel(s) : 2 channels
Channel layout : L R
Sampling rate : 48.0 kHz
Frame rate : 46.875 FPS (1024 SPF)
Compression mode : Lossy
Delay relative to video : -21 ms
Stream size : 98.1 MiB (8%)
Title : Stereo
Language : Chinese
Default : No
Forced : No

Text #1
ID : 4
Format : ASS
Codec ID : S_TEXT/ASS
Codec ID/Info : Advanced Sub Station Alpha
Duration : 1 h 40 min
Bit rate : 65 b/s
Count of elements : 1051
Compression mode : Lossless
Stream size : 48.5 KiB (0%)
Language : English
Default : No
Forced : No

Text #2
ID : 5
Format : PGS
Muxing mode : zlib
Codec ID : S_HDMV/PGS
Codec ID/Info : Picture based subtitle format used on BDs/HD-DVDs
Bit rate : 0 b/s
Count of elements : 0
Stream size : 0.00 Byte (0%)
Language : English
Default : No
Forced : No


SCREENSHOT



Keep Visit DesireMoVies.trade For More Exusive MoVies


Files:

The Adventurers (2017) 720p Blu-ray x264 Esub [Dual Audio] [Hindi DD 2.0 - Chinese 2.0]
  • SAMPLE.mkv (10.9 MB)
  • The Adventurers (2017) 720p Blu-ray x264 Esub [Dual Audio] DesireMovies.Club.mkv (1.2 GB)

Code:

  • udp://tracker.opentrackr.org:1337/announce
  • udp://zer0day.to:1337/announce
  • udp://tracker.coppersurfer.tk:6969/announce
  • udp://tracker.coppersurfer.tk:80/announce
  • udp://p4p.arenabg.com:1337/announce
  • udp://p4p.arenabg.ch:1337/announce
  • udp://tracker.internetwarriors.net:1337/announce
  • udp://9.rarbg.to:2710/announce
  • udp://9.rarbg.me:2710/announce
  • udp://9.rarbg.com:2710/announce
  • udp://9.rarbg.me:2730/announce
  • udp://eddie4.nl:6969/announce
  • udp://tracker.leechers-paradise.org:6969/announce
  • udp://tracker.ilibr.org:80/announce
  • udp://tracker.ilibr.org:6969/announce