Bumblebee.2018.RERIP.1080p.KORSUB.HDRip.x264.AAC2.0.With.Sample.LLG

  • Category Movies
  • Type HD
  • Language English
  • Total size 2.6 GB
  • Uploaded By LifeLongg
  • Downloads 377
  • Last checked Jan. 21st '19
  • Date uploaded Jan. 21st '19
  • Seeders 65
  • Leechers 56

Infohash : 64553F64A2CBA64182D873E9F00678A6A4C8CB2B

Quote:





******************************Thumbnail:**********************



******************************Screenshots:********************

Screenshot 1

Screenshot 2

Screenshot 3

Screenshot 4

Screenshot 5

Screenshot 6

Screenshot 7

Screenshot 8

Screenshot 9

Screenshot 0


******************************************************

Bumblebee.2018.RERIP.1080p.KORSUB.HDRip.x264.AAC2.0.With.Sample.LLG.mp4
Format : MPEG-4
Format profile : Base Media
Codec ID : isom (isom/iso2/avc1/mp41)
File size : 2.58 GiB
Duration : 1 h 53 min
Overall bit rate mode : Variable
Overall bit rate : 3 241 kb/s
Writing application : Lavf57.83.100

Video
ID : 1
Format : AVC
Format/Info : Advanced Video Codec
Format profile : [email protected]
Format settings : CABAC / 1 Ref Frames
Format settings, CABAC : Yes
Format settings, RefFrames : 1 frame
Codec ID : avc1
Codec ID/Info : Advanced Video Coding
Duration : 1 h 53 min
Bit rate mode : Variable
Bit rate : 3 002 kb/s
Maximum bit rate : 9 000 kb/s
Width : 1 920 pixels
Height : 1 080 pixels
Display aspect ratio : 16:9
Frame rate mode : Constant
Frame rate : 29.970 (29970/1000) FPS
Original frame rate : 29.970 (30000/1001) FPS
Color space : YUV
Chroma subsampling : 4:2:0
Bit depth : 8 bits
Scan type : Progressive
Bits/(Pixel*Frame) : 0.048
Stream size : 2.39 GiB (93%)
Codec configuration box : avcC

Audio
ID : 2
Format : AAC LC
Format/Info : Advanced Audio Codec Low Complexity
Codec ID : mp4a-40-2
Duration : 1 h 53 min
Bit rate mode : Variable
Bit rate : 233 kb/s
Maximum bit rate : 256 kb/s
Channel(s) : 2 channels
Channel layout : L R
Sampling rate : 48.0 kHz
Frame rate : 46.875 FPS (1024 SPF)
Compression mode : Lossy
Stream size : 190 MiB (7%)
Language : English
Default : Yes
Alternate group : 1




********************************************************


Files:

Bumblebee.2018.RERIP.1080p.KORSUB.HDRip.x264.AAC2.0.With.Sample.LLG
  • SAMPLE.mp4 (35.0 MB)
  • Bumblebee.2018.RERIP.1080p.KORSUB.HDRip.x264.AAC2.0.With.Sample.LLG.mp4 (2.6 GB)

Code:

  • udp://tracker.openbittorrent.com:80/announce
  • udp://tracker.opentrackr.org:1337/announce
  • udp://tracker.coppersurfer.tk:6969/announce
  • udp://tracker.pirateparty.gr:6969/announce
  • udp://tracker.coppersurfer.tk:6969/announce
  • udp://tracker.leechers-paradise.org:6969/announce
  • udp://eddie4.nl:6969/announce
  • udp://tracker.tiny-vps.com:6969/announce
  • udp://9.rarbg.me:2770/announce
  • udp://9.rarbg.to:2770/announce
  • udp://public.popcorn-tracker.org:6969/announce
  • udp://open.stealth.si:80/announce
  • udp://tracker.vanitycore.co:6969/announce
  • udp://tracker.opentrackr.org:1337/announce
  • udp://bt.firebit.co.uk:6969/announce