Temper 2 2019 (Kanthaswamy ) HDRip Hindi Dubbed 720p 1GB

  • Category Movies
  • Type Dubs/Dual Audio
  • Language Hindi
  • Total size 1 GB
  • Uploaded By worldfree1
  • Downloads 4374
  • Last checked Jan. 19th '19
  • Date uploaded Jan. 19th '19
  • Seeders 396
  • Leechers 540

Infohash : 69F38559EB004D98A7FFBA2CB3013B03B14EE1F7












Quote:

Format                                   : Matroska
Format version                           : Version 4
File size                                : 1.04 GiB
Duration                                 : 2 h 28 min
Overall bit rate                         : 999 kb/s
Encoded date                             : UTC 2019-01-19 04:35:48 / UTC
Writing application                      : mkvmerge v28.1.0 ('Morning Child') 64-bit
Writing library                          : libebml v1.3.6 + libmatroska v1.4.9 / Lavf55.12.0

Video
ID                                       : 1
Format                                   : AVC
Format/Info                              : Advanced Video Codec
Format profile                           : [email protected]
Format settings                          : CABAC / 8 Ref Frames
Format settings, CABAC                   : Yes
Format settings, RefFrames               : 8 frames
Codec ID                                 : V_MPEG4/ISO/AVC
Duration                                 : 2 h 28 min
Bit rate                                 : 900 kb/s
Width                                    : 1 280 pixels
Height                                   : 548 pixels
Display aspect ratio                     : 2.35:1
Frame rate mode                          : Constant
Frame rate                               : 25.000 FPS
Color space                              : YUV
Chroma subsampling                       : 4:2:0
Bit depth                                : 8 bits
Scan type                                : Progressive
Bits/(Pixel*Frame)                       : 0.051
Stream size                              : 957 MiB (90%)
Writing library                          : x264 core 142 r2479 dd79a61
Default                                  : Yes
Forced                                   : No
Color range                              : Limited
Color primaries                          : BT.709
Transfer characteristics                 : BT.709
Matrix coefficients                      : BT.709

Audio
ID                                       : 2
Format                                   : AAC LC SBR
Format/Info                              : Advanced Audio Codec Low Complexity with Spectral Band Replication
Commercial name                          : HE-AAC
Format settings                          : NBC
Codec ID                                 : A_AAC-5
Duration                                 : 2 h 28 min
Bit rate                                 : 96.0 kb/s
Channel(s)                               : 2 channels
Channel layout                           : L R
Sampling rate                            : 44.1 kHz
Frame rate                               : 21.533 FPS (2048 SPF)
Compression mode                         : Lossy
Delay relative to video                  : -115 ms
Stream size                              : 102 MiB (10%)
Language                                 : English
Default                                  : Yes
Forced                                   : No


Files:

  • Temper 2 2019 [ Bolly4u.wiki ] HDRip Hindi DUbbed 720p 1GB.mkv (1.0 GB)

Code:

  • udp://tracker.openbittorrent.com:80/announce
  • udp://tracker.opentrackr.org:1337/announce
  • udp://tracker.openbittorrent.com:80/announce
  • udp://tracker.opentrackr.org:1337/announce
  • http://ipv4.tracker.harry.lu:80/announce
  • http://163.172.180.68:80/announce
  • http://t.nyaatracker.com/announce
  • http://tracker.devil-torrents.pl:80/announce
  • http://tracker.devil-torrents.pl/announce
  • http://open.kickasstracker.com/announce
  • http://163.172.180.68/announce
  • http://t.nyaatracker.com:80/announce
  • http://retracker.mgts.by:80/announce
  • http://45.33.11.224/announce
  • http://tracker.torrentyorg.pl:80/announce
  • http://pt.lax.mx:80/announce
  • udp://tracker.coppersurfer.tk:6969/announce
  • udp://tracker.pirateparty.gr:6969/announce